Author Topic: Keller Williams 2010-12-26: Keller & The Keels, K Dubalicious, KW Solo & more  (Read 946 times)

0 Members and 1 Guest are viewing this topic.

Offline rowjimmy

  • Head Ache
  • 'Paug Admin
  • In the OTHER Band
  • ****
  • Posts: 48916
  • Karma: 2151
  • Gender: Male
  • No Questions. Just Rawk
    • Row Knows
Neely's been waiting on this a while...

https://archive.org/details/kw2010-12-26.smk-h8ku.rj.flac16

2010-12-26
Keller Williams
Fredericksburg Field House
Fredericksburg, VA

10th Annual Fredericksburg Area SPCA Benefit
http://www.fburgspca.org

Source:
Superlux SMK-H8K/U > KindKables Black Stealths > Busman T-Mod FR2LE > .wav (16bit/44.1kHz)
Minor Edits incl. Fades, Tracking, & conversion to Flac level 8 via Amedeus Lite
Recorded, transferred, & uploaded by rowjimmy



Set 1
K Dubalicious
feat.
Keller Williams on bass & vox
Jay Starling on keys & vox
Mark D on drums

01. Ninja
02. Tell Me Something Good
03. Thinking Out Loud > More Than A Little > Thinking Out Loud >
04. Feel Like A Stranger
05. Multisyllabic
06. Victory Song
07. Hey Ho Jorge
08. Positive Reggae

Set 2a - InterMission featuring Elby Brass
01.
02.
03.
04.
05.
06. *

*With Keller Williams. Flows seamlessly into Set 2.

Set 2
Keller & The Keels
feat.
Keller W on 8string 12string guitar & vox
Larry Keel on guitar & vox
Jenny Keel on bass & vox

01. Breathe >
02. Cold Roses >
03. Breathe
04. Intros
05. Don't Cuss That Fiddle
06. Freeker
07. Get It
08. Mountain Song
09. Mary Jane’s Last Breakdown
10. Intro - Dr. John Starling & Jay Starling
11. New Deli Freight Train *
12. Dark Hollow *
13. Uncle Disney
14. Sex And Candy
15. Hepped Up Goofballs
16. The Year 2000 Minus 25


Set 3a - InterMission featuring Elby Brass
01.
02.
03.
04.



Set 3
Keller Williams (solo)^

01. Thin Mint >
02. Kidney
03. Loup > One More Saturday Night (It's Sunday Night)
04. Stinky Green >
05. Moving Sidewalk
06. Bob Rules >
07. Scooby Doo >
08. Bob Rules
09. Freshies^
10. Scarlet Begonias >
11. Best Feeling

Encore:
12. Crowd/Intros
13. Pepper^^ >
14. Soul Shakedown Party^^ >
15. Pepper^^


* with Dr John Starling (Seldom Scene) on guitar and vox & Jay Starling on dobro
^ all request set from songs requested via a notepad posted at the ticket table
^^ KW bass, Jay S keys, Larry K Guitar, Mark D drums, Jenny K vox

Ely Brass sets were performed on the floor of the venue, amid the audience, without the PA.



shntool output:

    length     expanded size    cdr  WAVE problems  fmt   ratio  filename
     5:46.73       61206140 B   ---   --   ---xx   flac  0.5687  kw2010-12-26s1t01.flac
     5:21.52       56746748 B   ---   --   ---xx   flac  0.5613  kw2010-12-26s1t02.flac
     8:03.14       85234172 B   ---   --   ---xx   flac  0.5588  kw2010-12-26s1t03.flac
     6:52.02       72681548 B   ---   --   ---xx   flac  0.5776  kw2010-12-26s1t04.flac
     8:23.62       88875068 B   ---   --   ---xx   flac  0.5404  kw2010-12-26s1t05.flac
     4:10.23       44154140 B   ---   --   ---xx   flac  0.5528  kw2010-12-26s1t06.flac
     5:47.15       61246124 B   ---   --   ---xx   flac  0.5726  kw2010-12-26s1t07.flac
     8:03.67       85358828 B   ---   --   ---xx   flac  0.5867  kw2010-12-26s1t08.flac
     5:56.00       62798444 B   ---   --   ---xx   flac  0.5900  kw2010-12-26s2at01.flac
     4:59.24       52800092 B   ---   --   ---xx   flac  0.5902  kw2010-12-26s2at02.flac
     3:49.14       40428572 B   ---   --   ---xx   flac  0.6330  kw2010-12-26s2at03.flac
     3:40.57       38942108 B   ---   --   ---xx   flac  0.6041  kw2010-12-26s2at04.flac
     3:18.21       34976636 B   ---   --   ---xx   flac  0.6370  kw2010-12-26s2at05.flac
     2:24.42       25500428 B   ---   --   ---xx   flac  0.6102  kw2010-12-26s2at06.flac
     4:23.13       46423820 B   ---   --   ---xx   flac  0.5741  kw2010-12-26s2t01.flac
     2:59.28       31641500 B   ---   --   ---xx   flac  0.5817  kw2010-12-26s2t02.flac
     2:04.72       22042988 B   ---   --   ---xx   flac  0.5643  kw2010-12-26s2t03.flac
     0:27.23        4816940 B   ---   --   ---xx   flac  0.5171  kw2010-12-26s2t04.flac
     4:44.42       50196428 B   ---   --   ---xx   flac  0.5866  kw2010-12-26s2t05.flac
     5:46.21       61083836 B   ---   --   ---xx   flac  0.5822  kw2010-12-26s2t06.flac
     4:26.35       47004764 B   ---   --   ---xx   flac  0.5531  kw2010-12-26s2t07.flac
     4:28.00       47275244 B   ---   --   ---xx   flac  0.5591  kw2010-12-26s2t08.flac
     5:34.52       59039948 B   ---   --   ---xx   flac  0.5550  kw2010-12-26s2t09.flac
     0:49.63        8791820 B   ---   --   ---xx   flac  0.4679  kw2010-12-26s2t10.flac
     3:50.31       40644956 B   ---   --   ---xx   flac  0.5435  kw2010-12-26s2t11.flac
     2:55.38       30959420 B   ---   --   ---xx   flac  0.5555  kw2010-12-26s2t12.flac
     5:11.32       54935708 B   ---   --   ---xx   flac  0.5569  kw2010-12-26s2t13.flac
     2:18.47       24453788 B   ---   --   ---xx   flac  0.5539  kw2010-12-26s2t14.flac
     4:40.39       49483772 B   ---   --   ---xx   flac  0.6067  kw2010-12-26s2t15.flac
     4:18.65       45664124 B   ---   --   ---xx   flac  0.5820  kw2010-12-26s2t16.flac
     4:06.21       43443836 B   ---   --   ---xx   flac  0.5573  kw2010-12-26s3at01.flac
     3:43.14       39370172 B   ---   --   ---xx   flac  0.5926  kw2010-12-26s3at02.flac
     4:28.34       47355212 B   ---   --   ---xx   flac  0.6102  kw2010-12-26s3at03.flac
     6:04.17       64249628 B   ---   --   ---xx   flac  0.5957  kw2010-12-26s3at04.flac
     3:47.59       40181612 B   ---   --   ---xx   flac  0.5542  kw2010-12-26s3t01.flac
     5:25.18       57372380 B   ---   --   ---xx   flac  0.5819  kw2010-12-26s3t02.flac
    11:24.74      120831692 B   ---   --   ---xx   flac  0.5810  kw2010-12-26s3t03.flac
    10:04.12      106573868 B   ---   --   ---xx   flac  0.5960  kw2010-12-26s3t04.flac
     8:41.51       92024396 B   ---   --   ---xx   flac  0.5908  kw2010-12-26s3t05.flac
     3:48.74       40393292 B   ---   --   ---xx   flac  0.6081  kw2010-12-26s3t06.flac
     2:52.34       30420812 B   ---   --   ---xx   flac  0.5534  kw2010-12-26s3t07.flac
     2:03.71       21864236 B   ---   --   ---xx   flac  0.6007  kw2010-12-26s3t08.flac
     8:01.51       84968396 B   ---   --   ---xx   flac  0.5844  kw2010-12-26s3t09.flac
     3:54.17       41317628 B   ---   --   ---xx   flac  0.5927  kw2010-12-26s3t10.flac
    15:48.10      167250764 B   ---   --   ---xx   flac  0.5973  kw2010-12-26s3t11.flac
     3:04.24       32514092 B   ---   --   ---xx   flac  0.4923  kw2010-12-26s3t12.flac
     4:17.08       45353660 B   ---   --   ---xx   flac  0.6366  kw2010-12-26s3t13.flac
     3:26.04       36347852 B   ---   --   ---xx   flac  0.6129  kw2010-12-26s3t14.flac
     1:49.07       19244108 B   ---   --   ---xx   flac  0.5881  kw2010-12-26s3t15.flac
   242:29.17     2566485740 B                            0.5801  (49 files)


ffp:

kw2010-12-26s1t01.flac:78ca4ddb225ce1ffad7613131f749f8a
kw2010-12-26s1t02.flac:a5c44079b388df57a4f1c9a3a580471b
kw2010-12-26s1t03.flac:d1acb262d8e61ffd98c21288e17a0e7f
kw2010-12-26s1t04.flac:db38f55dbc2d1391acf825b9c827811e
kw2010-12-26s1t05.flac:e0a7c3d54a9e9119b7f640899fd2ff99
kw2010-12-26s1t06.flac:6ddb0324e26d0348798d36f36f510ab4
kw2010-12-26s1t07.flac:ca468841f9c47b77fc14438a03460c62
kw2010-12-26s1t08.flac:827c388d2833a2ff81c81fce9fc9f26b
kw2010-12-26s2at01.flac:150440446608ced562412a39b85ec8a8
kw2010-12-26s2at02.flac:0772bd2593cf75855e6d30631d9cdc64
kw2010-12-26s2at03.flac:688d22aec4c83973d63304e04dcc14a6
kw2010-12-26s2at04.flac:bc9a7cf11631bfc998793a7055b13177
kw2010-12-26s2at05.flac:f53a372d9876e8351ab9534c0b368aeb
kw2010-12-26s2at06.flac:e242deaee4cedc61a8e4a61f695caefe
kw2010-12-26s2t01.flac:a52d92864e4bdc7a1951e3b3c854dd87
kw2010-12-26s2t02.flac:babea82335ff438543b2c6b51c2ffe31
kw2010-12-26s2t03.flac:61717d7c77b5383491276cbd22a32819
kw2010-12-26s2t04.flac:49e16537636fa285c7932e43f019054c
kw2010-12-26s2t05.flac:41c0b137290119ef288b2e2df5811e4b
kw2010-12-26s2t06.flac:be7f360bbc91853409025725f1969921
kw2010-12-26s2t07.flac:05a1044839af0ab3223d29a7a6f614d8
kw2010-12-26s2t08.flac:5e125a8f23e3ee702de388333160fbed
kw2010-12-26s2t09.flac:512971e927ddc1168f81c5d58b78ec62
kw2010-12-26s2t10.flac:ce0f74f1cc8ecdf1a8f17cecea8f9a3d
kw2010-12-26s2t11.flac:e65a17524e0fb5312b4be875e93a4be0
kw2010-12-26s2t12.flac:4e91a4a0a42b0896d5982916d2259582
kw2010-12-26s2t13.flac:f452a193e28bd1009b8a6ca99d5dbeb1
kw2010-12-26s2t14.flac:fb0014b2c057b23bfd6c61286d17b52b
kw2010-12-26s2t15.flac:c04ae13a2ab74094fb4ab77d601cdbac
kw2010-12-26s2t16.flac:5a9698f917ad29ac95559dedfb03ae26
kw2010-12-26s3at01.flac:0b647cceb8ca0d1369913153230c1768
kw2010-12-26s3at02.flac:c2738004c9aab73df306277ceae25c04
kw2010-12-26s3at03.flac:b8534313f837d38c8a30d6c3a90ca9f4
kw2010-12-26s3at04.flac:e1e0d1e34e6a7bf7b52432cf63b640f1
kw2010-12-26s3t01.flac:fb77b8644317f0d73cb3bf141351dd7e
kw2010-12-26s3t02.flac:5e3317cee5c41dd77f7a98fcf4e377a6
kw2010-12-26s3t03.flac:c8ff6fa27ab007a9488cc40a0646cb1a
kw2010-12-26s3t04.flac:fb5e1cba94965e5f8c962e9d34ad2bdc
kw2010-12-26s3t05.flac:4b5412172872445fcf523219cbe9948f
kw2010-12-26s3t06.flac:2bcf61d40475ec66c570de36b5140206
kw2010-12-26s3t07.flac:f230e1b7f890566acb213860f221df73
kw2010-12-26s3t08.flac:21badab6327132e670286362760e2b02
kw2010-12-26s3t09.flac:8e3b6879e5599ffc083d865f14369c81
kw2010-12-26s3t10.flac:5034db53d7d0102e54fa174365552255
kw2010-12-26s3t11.flac:0de3f8fbf2ec909db1faa0e4d6541e93
kw2010-12-26s3t12.flac:9d4091a80899c0a0fcb9a6bd6f4b5b7a
kw2010-12-26s3t13.flac:ce4c879d111cc9fb22d7e17f17d5ea71
kw2010-12-26s3t14.flac:4ada78c355fb4855bed0831a4dd0cd54
kw2010-12-26s3t15.flac:652f7fb4d5d042006a7ab72e61207c8c

Offline pcr3

  • Reading The Book...
  • *
  • Posts: 2029
  • Karma: 115
  • Gender: Male
Nice work! Can't wait to give this a listen.
"I'm singlehandedly responsible for poisoning the entire local ecosystem with all my fluids spilling onto the ground." -birdman, while plowing

"Mushrooms were a good idea!" -wtu

http://phish.net/myshows/prizzi3

Offline antelope19

  • Gamehendge
  • ****
  • Posts: 24380
  • Karma: 876
  • Gender: Male
Whoa!!!!  I'm gonna have to do some digging to find the pics.  Thanks for sharing!
Quote
Good judgment comes from experience, and a lotta that comes from bad judgment