Author Topic: gd1980-05-11.fob.glassberg.motb.0052.97522.flac16 **New MOTB**  (Read 384 times)

0 Members and 1 Guest are viewing this topic.

Offline nab

  • In the Band
  • ***
  • Posts: 8571
  • Karma: 902
  • Gender: Male
gd1980-05-11.fob.glassberg.motb.0052.97522.flac16 **New MOTB**
« on: February 21, 2009, 05:02:35 PM »
http://bt.etree.org/details.php?id=522757
http://db.etree.org/shninfo_detail.php?shnid=97522




Quote
MOTB Release: 0052 16/44.1
Release Date: 2009-02-07
Band: Grateful Dead
Date: 1980-05-11 (Sunday)
Venue: Cumberland County Civic Center
Location: Portland, Me.
Analog Audience Source: FOB Master Cassettes (MAC)
Medium Stock Brands: MAC = 3 x Maxell XLII C90
Analog Lineage: 2 x Nakamichi CM700 => Sony TC-D5 >> MAC
Analog Sound Preservation: MAC >> Nakamichi DR-1 => Grace Design Lunatec V3 >> Korg MR-1000 >> DSF [1-bit 5.6448 MHz Stereo] >> Korg MR-1000 => Korg AudioGate >> WAV [24/96]
Taped By: Barry Glassberg
Transfer By: Adam Egert
Mastering By: Adam Egert

Set 1:
d1t01 - Crowd
d1t02 - Alabama Getaway >
d1t03 - The Promised Land
d1t04 - They Love Each Other
d1t05 - Cassidy
d1t06 - Take A Step Back!
d1t07 - Loser
d1t08 - It's All Over Now
d1t09 - Easy To Love You
d1t10 - Crowd
d1t11 - Big Railroad Blues
d1t12 - Looks Like Rain
d1t13 - Crowd
d1t14 - Don't Ease Me In
d1t15 - The Music Never Stopped

Set 2:
d2t01 - Scarlet Begonias >
d2t02 - Fire On The Mountain
d2t03 - Feel Like A Stranger >
d2t04 - Terrapin Station >
d2t05 - Playing In The Band >
d2t06 - Drums >
d3t01 - Space >
d3t02 - Black Peter >
d3t03 - Goin' Down The Road Feeling Bad >
d3t04 - Around And Around >
d3t05 - Johnny B. Goode

Encore:
d3t06 - Brokedown Palace

Notes:
1) From middle of Looks Like Rain through Middle of Music Never stopped the left channel
has a slightly muted sound. It is as if thwe left microphone was slightly obstructed.
Pan was used to reduce this but it is still apparent.

2) The end of Drums into the beginning of Space is patched with ShnId: 7539





aec0b9f1e2795c5f749668357f3b58ab [shntool] gd1980-05-11.fob.glassberg.motb.d1t01.flac
e3a5d4138a1bf3d7f048b8ff6fa6635d [shntool] gd1980-05-11.fob.glassberg.motb.d1t02.flac
958e8653633eb630a9ac1980734ce68e [shntool] gd1980-05-11.fob.glassberg.motb.d1t03.flac
54441e5f28a88fa7ef1d1666bc64b648 [shntool] gd1980-05-11.fob.glassberg.motb.d1t04.flac
e11a7bdb8e19a3948822543acf81774d [shntool] gd1980-05-11.fob.glassberg.motb.d1t05.flac
d64079df83d05e20ba66e87f4fb8f641 [shntool] gd1980-05-11.fob.glassberg.motb.d1t06.flac
625aa03027628e63332a6a407c0a7b5e [shntool] gd1980-05-11.fob.glassberg.motb.d1t07.flac
d6f8203b9ade834850d6af40afeb0c6c [shntool] gd1980-05-11.fob.glassberg.motb.d1t08.flac
c8985e549504e5930fec5038c5e7b894 [shntool] gd1980-05-11.fob.glassberg.motb.d1t09.flac
e1ca3e7b21e3ed7ac626bc362e6d28e8 [shntool] gd1980-05-11.fob.glassberg.motb.d1t10.flac
3090f65e8295a17145a521bbed035c9c [shntool] gd1980-05-11.fob.glassberg.motb.d1t11.flac
c7d8b0e5374125d0ef1ee108fe1fef3d [shntool] gd1980-05-11.fob.glassberg.motb.d1t12.flac
8b1aa1c9ab95a06d5f1a953c1794f45a [shntool] gd1980-05-11.fob.glassberg.motb.d1t13.flac
99f2010e787e527538606518815d92d3 [shntool] gd1980-05-11.fob.glassberg.motb.d1t14.flac
bac4625d16152ec9e68fd7ee1f8cc8dc [shntool] gd1980-05-11.fob.glassberg.motb.d1t15.flac
36f8c4de1a6a8c57073b0e5916d10ffe [shntool] gd1980-05-11.fob.glassberg.motb.d2t01.flac
b7c8eef60374dba490db493411058f21 [shntool] gd1980-05-11.fob.glassberg.motb.d2t02.flac
ba5220d985ac519c00b3da4e276a6167 [shntool] gd1980-05-11.fob.glassberg.motb.d2t03.flac
db0f0c28f62e0b19512d2d2edf8f7090 [shntool] gd1980-05-11.fob.glassberg.motb.d2t04.flac
9837750cc66e07722cc623566aa164e6 [shntool] gd1980-05-11.fob.glassberg.motb.d2t05.flac
29c4b9abc66081d60a5e132f0f7cdf2a [shntool] gd1980-05-11.fob.glassberg.motb.d2t06.flac
2af46214d6d73b13357edbaea1eddfcf [shntool] gd1980-05-11.fob.glassberg.motb.d3t01.flac
47186a11b2d5f27b3faf240673c9870f [shntool] gd1980-05-11.fob.glassberg.motb.d3t02.flac
933447c6eea24d4142ba7e8577d469c5 [shntool] gd1980-05-11.fob.glassberg.motb.d3t03.flac
06f20e4a7c5cd74af6800f6d4646fec6 [shntool] gd1980-05-11.fob.glassberg.motb.d3t04.flac
9bde50d12228c44d0147b58a726225c2 [shntool] gd1980-05-11.fob.glassberg.motb.d3t05.flac
bf3199825a54a65c2119181186410e87 [shntool] gd1980-05-11.fob.glassberg.motb.d3t06.flac

gd1980-05-11.fob.glassberg.motb.d1t01.flac:aec0b9f1e2795c5f749668357f3b58ab
gd1980-05-11.fob.glassberg.motb.d1t02.flac:e3a5d4138a1bf3d7f048b8ff6fa6635d
gd1980-05-11.fob.glassberg.motb.d1t03.flac:958e8653633eb630a9ac1980734ce68e
gd1980-05-11.fob.glassberg.motb.d1t04.flac:54441e5f28a88fa7ef1d1666bc64b648
gd1980-05-11.fob.glassberg.motb.d1t05.flac:e11a7bdb8e19a3948822543acf81774d
gd1980-05-11.fob.glassberg.motb.d1t06.flac:d64079df83d05e20ba66e87f4fb8f641
gd1980-05-11.fob.glassberg.motb.d1t07.flac:625aa03027628e63332a6a407c0a7b5e
gd1980-05-11.fob.glassberg.motb.d1t08.flac:d6f8203b9ade834850d6af40afeb0c6c
gd1980-05-11.fob.glassberg.motb.d1t09.flac:c8985e549504e5930fec5038c5e7b894
gd1980-05-11.fob.glassberg.motb.d1t10.flac:e1ca3e7b21e3ed7ac626bc362e6d28e8
gd1980-05-11.fob.glassberg.motb.d1t11.flac:3090f65e8295a17145a521bbed035c9c
gd1980-05-11.fob.glassberg.motb.d1t12.flac:c7d8b0e5374125d0ef1ee108fe1fef3d
gd1980-05-11.fob.glassberg.motb.d1t13.flac:8b1aa1c9ab95a06d5f1a953c1794f45a
gd1980-05-11.fob.glassberg.motb.d1t14.flac:99f2010e787e527538606518815d92d3
gd1980-05-11.fob.glassberg.motb.d1t15.flac:bac4625d16152ec9e68fd7ee1f8cc8dc
gd1980-05-11.fob.glassberg.motb.d2t01.flac:36f8c4de1a6a8c57073b0e5916d10ffe
gd1980-05-11.fob.glassberg.motb.d2t02.flac:b7c8eef60374dba490db493411058f21
gd1980-05-11.fob.glassberg.motb.d2t03.flac:ba5220d985ac519c00b3da4e276a6167
gd1980-05-11.fob.glassberg.motb.d2t04.flac:db0f0c28f62e0b19512d2d2edf8f7090
gd1980-05-11.fob.glassberg.motb.d2t05.flac:9837750cc66e07722cc623566aa164e6
gd1980-05-11.fob.glassberg.motb.d2t06.flac:29c4b9abc66081d60a5e132f0f7cdf2a
gd1980-05-11.fob.glassberg.motb.d3t01.flac:2af46214d6d73b13357edbaea1eddfcf
gd1980-05-11.fob.glassberg.motb.d3t02.flac:47186a11b2d5f27b3faf240673c9870f
gd1980-05-11.fob.glassberg.motb.d3t03.flac:933447c6eea24d4142ba7e8577d469c5
gd1980-05-11.fob.glassberg.motb.d3t04.flac:06f20e4a7c5cd74af6800f6d4646fec6
gd1980-05-11.fob.glassberg.motb.d3t05.flac:9bde50d12228c44d0147b58a726225c2
gd1980-05-11.fob.glassberg.motb.d3t06.flac:bf3199825a54a65c2119181186410e87

shntool 3.0.4
Copyright (C) 2000-2007 Jason Jordan <shnutils@freeshell.org>

length expanded size cdr WAVE problems fmt ratio filename
1:18.50 13876844 B --- -- ---xx flac 0.4580 gd1980-05-11.fob.glassberg.motb.d1t01.flac
4:34.54 48460652 B --- -- ---xx flac 0.5943 gd1980-05-11.fob.glassberg.motb.d1t02.flac
5:35.39 59185772 B --- -- ---xx flac 0.5662 gd1980-05-11.fob.glassberg.motb.d1t03.flac
8:22.46 88661036 B --- -- ---xx flac 0.5346 gd1980-05-11.fob.glassberg.motb.d1t04.flac
5:13.08 55232060 B --- -- ---xx flac 0.5676 gd1980-05-11.fob.glassberg.motb.d1t05.flac
1:12.61 12844316 B --- -- ---xx flac 0.4936 gd1980-05-11.fob.glassberg.motb.d1t06.flac
10:08.30 107321804 B --- -- ---xx flac 0.5162 gd1980-05-11.fob.glassberg.motb.d1t07.flac
9:28.31 100268156 B --- -- ---xx flac 0.5728 gd1980-05-11.fob.glassberg.motb.d1t08.flac
3:38.63 38603420 B --- -- ---xx flac 0.5602 gd1980-05-11.fob.glassberg.motb.d1t09.flac
1:43.29 18237452 B --- -- ---xx flac 0.4956 gd1980-05-11.fob.glassberg.motb.d1t10.flac
4:49.02 50984348 B --- -- ---xx flac 0.5993 gd1980-05-11.fob.glassberg.motb.d1t11.flac
8:14.32 87216908 B --- -- ---xx flac 0.5201 gd1980-05-11.fob.glassberg.motb.d1t12.flac
1:58.19 20859932 B --- -- ---xx flac 0.4511 gd1980-05-11.fob.glassberg.motb.d1t13.flac
3:22.25 35691644 B --- -- ---xx flac 0.5346 gd1980-05-11.fob.glassberg.motb.d1t14.flac
7:48.09 82576412 B --- -- ---xx flac 0.5702 gd1980-05-11.fob.glassberg.motb.d1t15.flac
6:43.34 71169212 B --- -- ---xx flac 0.5715 gd1980-05-11.fob.glassberg.motb.d2t01.flac
9:47.59 103685612 B --- -- ---xx flac 0.5707 gd1980-05-11.fob.glassberg.motb.d2t02.flac
7:33.73 80080940 B --- -- ---xx flac 0.5768 gd1980-05-11.fob.glassberg.motb.d2t03.flac
12:10.21 128821436 B --- -- ---xx flac 0.5566 gd1980-05-11.fob.glassberg.motb.d2t04.flac
9:04.51 96081596 B --- -- ---xx flac 0.5703 gd1980-05-11.fob.glassberg.motb.d2t05.flac
5:06.14 54011372 B --- -- ---xx flac 0.5499 gd1980-05-11.fob.glassberg.motb.d2t06.flac
3:05.00 32634044 B --- -- ---xx flac 0.5018 gd1980-05-11.fob.glassberg.motb.d3t01.flac
9:12.72 97542188 B --- -- ---xx flac 0.5110 gd1980-05-11.fob.glassberg.motb.d3t02.flac
7:09.56 75807356 B --- -- ---xx flac 0.5986 gd1980-05-11.fob.glassberg.motb.d3t03.flac
3:54.27 41341148 B --- -- ---xx flac 0.5927 gd1980-05-11.fob.glassberg.motb.d3t04.flac
4:16.11 45184316 B --- -- ---xx flac 0.6240 gd1980-05-11.fob.glassberg.motb.d3t05.flac
6:56.37 73469468 B --- -- ---xx flac 0.5284 gd1980-05-11.fob.glassberg.motb.d3t06.flac
162:29.53 1719849444 B 0.5548 (27 files)