Author Topic: 1979/01/11 Nassau Coliseum - Uniondale, NY [SBD Miller 102430] Never before circ  (Read 547 times)

0 Members and 1 Guest are viewing this topic.

Offline AfterMidnight

  • Chasing The Backbeat
  • ***
  • Posts: 277
  • Karma: 37
  • Gender: Male
http://bt.etree.org/details.php?id=529703

Grateful Dead - January 11, 1979
Nassau Coliseum - Uniondale, NY

Recording Info:
SBD -> Cassette Master (Sony D5) -> Cassette (Sony D5)

Transfer Info:
Cassette (Nakamichi DR-1) -> Sound Devices 744T (24bit/96k) ->
Adobe Audition v1.5 -> Samplitude Professional v10.22 -> FLAC/16
(3 Discs Audio / 2 Discs FLAC)

All Mastering By Charlie Miller
charliemiller87@earthlink.net
November 4, 2009

Patch Info:
(FOB) Nakamichi 300/CP1 -> Cassette Master (shnid=30 supplies:
Cassidy (3:50 - 4:11)
Friend Of The Devil (4:47 - 5:02)
Jack Straw (5:53 - end of track)
Deal (0:00 - 0:31)
Ship Of Fools (0:00 - 0:06)
He's Gone (8:30 - 9:20)
Stella Blue (3:30 - end of track)
Good Lovin' (complete track)
Casey Jones (complete track)

Notes:
-- All disc changes are seamless
-- The pitch is not perfect, but it's a lot better than it was
-- Thanks to David Young and Rich Rothenberg for the tapes
-- Thanks to Joe B. Jones for his help with the pitch correction

Set 1:
d1t01 - Sugaree
d1t02 - Me And My Uncle ->
d1t03 - Big River
d1t04 - Peggy-O
d1t05 - Cassidy
d1t06 - Friend Of The Devil
d1t07 - New Minglewood Blues
d1t08 - From The Heart Of Me
d1t09 - Ramble On Rose
d2t01 - Jack Straw ->
d2t02 - Deal

Set 2:
d2t03 - I Need A Miracle
d2t04 - Ship Of Fools
d2t05 - Estimated Prophet ->
d2t06 - He's Gone ->
d2t07 - Drums ->
d3t01 - Space ->
d3t02 - Truckin' ->
d3t03 - The Other One ->
d3t04 - Stella Blue ->
d3t05 - Good Lovin'

Encore:
d3t06 - Casey Jones

Offline StCarl

  • Reading The Book...
  • *
  • Posts: 2301
  • Karma: 210
    • The Science Is Carl.
Re: 1979/01/11 Nassau Coliseum - Uniondale, NY [SBD Miller 102446] Fix'd
« Reply #1 on: November 11, 2009, 12:21:49 AM »
upgrade with new db entry: now available with a fixed He's Gone

http://db.etree.org/shn/102446

http://bt.etree.org/details.php?id=529732

Quote
Grateful Dead - January 11, 1979
Nassau Coliseum - Uniondale, NY

Recording Info:
SBD -> Cassette Master (Sony D5) -> Cassette (Sony D5)

Transfer Info:
Cassette (Nakamichi DR-1) -> Sound Devices 744T (24bit/96k) ->
Adobe Audition v1.5 -> Samplitude Professional v10.22 -> FLAC/16
(3 Discs Audio / 2 Discs FLAC)

All Mastering By Charlie Miller
charliemiller87@earthlink.net
November 9, 2009

Patch Info:
(FOB) Nakamichi 300/CP1 -> Cassette Master (shnid=308) supplies:
Cassidy (3:50 - 4:11)
Friend Of The Devil (4:47 - 5:02)
Jack Straw (5:53 - end of track)
Deal (0:00 - 0:31)
Ship Of Fools (0:00 - 0:06)
He's Gone (2:15 - 2:39) (8:30 - 9:20)
Stella Blue (3:30 - end of track)
Good Lovin' (complete track)
Casey Jones (complete track)

Notes:
-- All disc changes are seamless
-- This version has a fixed He's Gone
-- The pitch is not perfect, but it's a lot better than it was
-- Thanks to David Young and Rich Rothenberg for the tapes
-- Thanks to Joe B. Jones for his help with the pitch correction

Set 1:
d1t01 - Sugaree
d1t02 - Me And My Uncle ->
d1t03 - Big River
d1t04 - Peggy-O
d1t05 - Cassidy
d1t06 - Friend Of The Devil
d1t07 - New Minglewood Blues
d1t08 - From The Heart Of Me
d1t09 - Ramble On Rose
d2t01 - Jack Straw ->
d2t02 - Deal

Set 2:
d2t03 - I Need A Miracle
d2t04 - Ship Of Fools
d2t05 - Estimated Prophet ->
d2t06 - He's Gone ->
d2t07 - Drums ->
d3t01 - Space ->
d3t02 - Truckin' ->
d3t03 - The Other One ->
d3t04 - Stella Blue ->
d3t05 - Good Lovin'

Encore:
d3t06 - Casey Jones


SHNTOOL OUTPUT:
length expanded size cdr WAVE problems filename
15:04.09 159486812 --- -- ----- gd79-01-11d1t01.wav
2:53.10 30540764 --- -- ----- gd79-01-11d1t02.wav
6:46.47 71728988 --- -- ----- gd79-01-11d1t03.wav
9:58.08 105506060 --- -- ----- gd79-01-11d1t04.wav
4:57.05 52402604 --- -- ----- gd79-01-11d1t05.wav
12:17.72 130176188 --- -- ----- gd79-01-11d1t06.wav
7:25.57 78632108 --- -- ----- gd79-01-11d1t07.wav
4:22.52 46339148 --- -- ----- gd79-01-11d1t08.wav
10:25.12 110278268 --- -- ----- gd79-01-11d1t09.wav
6:12.04 65630252 --- -- ----- gd79-01-11d2t01.wav
6:16.66 66481676 --- -- ----- gd79-01-11d2t02.wav
11:25.18 120876380 --- -- ----- gd79-01-11d2t03.wav
11:17.20 119469884 --- -- ----- gd79-01-11d2t04.wav
12:55.31 136782956 --- -- ----- gd79-01-11d2t05.wav
16:38.32 176122508 --- -- ----- gd79-01-11d2t06.wav
10:14.52 108431948 --- -- ----- gd79-01-11d2t07.wav
2:36.40 27612524 --- -- ----- gd79-01-11d3t01.wav
9:35.08 101448860 --- -- ----- gd79-01-11d3t02.wav
5:44.07 60698108 --- -- ----- gd79-01-11d3t03.wav
12:07.42 128341628 --- -- ----- gd79-01-11d3t04.wav
6:36.34 69934412 --- -- ----- gd79-01-11d3t05.wav
5:27.70 57847484 --- -- ----- gd79-01-11d3t06.wav
191:18.21 2024769560 B (totals for 22 files)

http://bt.etree.org/details.php?id=529732

according to the poster:
Quote
d1t01 thru d2t05 are the same as the previous torrent.
your overall taste in phish shows perplexes me.