Register

Author Topic: Keller Williams 2005-12-26 AKG 481  (Read 769 times)

0 Members and 1 Guest are viewing this topic.

Offline rowjimmy

  • Head Ache
  • 'Paug Admin
  • In the OTHER Band
  • ****
  • Posts: 50242
  • Karma: 2192
  • Gender: Male
  • No Questions. Just Rawk
    • Row Knows
Keller Williams 2005-12-26 AKG 481
« on: December 27, 2005, 10:42:13 PM »
http://bt.etree.org/details.php?id=21199

2005-12-26
Keller Williams
Fraternal Order of Eagles
Stafford, Va

Source:
AKG 481 @ rear of sbd > Edirol UA5 (w/ Oade Warm Mod)  > JB3
Thanks to Justin T for the patch.

Transfer/tracking:
JB3 to PC via firewire > WavLab5 (fades) > CDWave (tracking) > Flac

Set 1
Disc One
01. Roshambo >
02. In the Middle >
03. Bob Rules > Dream Rap >
04. Another Brick In The Wall pt.1&2  >
05. Bob Rules >
06. Shakedown Street >
07. Passapatamzy
08. Relaxation Station
09. Get On Up  > Cars Trucks Busses > For The Love Of Money > Superstitious > Whole Lotta Love > Get On Up Reprise >
10. Above The Thunder
11. Blazeabago
12. Turn In Difference

Disc Two
01. Black Sheep*
02. Tribe

Set 2
03. Mental Instra
04. Bounty Hunter > Midnight Rider > Bounty Hunter >
05. Toy Loup
06. Rickie Don't Lose That Number
07. One Way Johnny

Disc Three
01. Slo Mo Balloon**
02. Kinky Reggae >
03. Loup
04. Life Without You
05. American Car~
06. Attics of My Life
07. Terrapin Station >
08. Loup
09. Freekshow
10. More Than A Little^

Encore
11. Turning Japanese^^
12. Celebrate Your Youth


* On keys. Martin Sexton song.
** with Lou on Trumpet
~ Mike doughty song
^ with intros before verses
^^ on upright bass

Fades @ beginning & end of Set One, beinning of Set Two & after Encore
Disc breaks are not faded and can be rejoined seamlessly.

kw2005-12-26d1t01.flac:042841725e04a6c74ea311204f6b1fa6
kw2005-12-26d1t02.flac:05e9d5fb973909421ce3c90c4a4469a5
kw2005-12-26d1t03.flac:84a4dbf5d670257357ba68252e6bfc2f
kw2005-12-26d1t04.flac:566fc075644409224b691b677ffbe315
kw2005-12-26d1t05.flac:28885374c2b18f5cc095ad129138167f
kw2005-12-26d1t06.flac:42b0ded1d5f0511d955318172cc40331
kw2005-12-26d1t07.flac:96d3eacff0934faa6e09d13791c7d80d
kw2005-12-26d1t08.flac:6fb1c138b0d507b849c1f2e98ba7576b
kw2005-12-26d1t09.flac:8623a001f3b96ec04a559f455d66bc52
kw2005-12-26d1t10.flac:1178f5ec3e95541d24c66bf287adb917
kw2005-12-26d1t11.flac:885fe60e6692648594c8501f276ac2b7
kw2005-12-26d1t12.flac:7a17479c6f7243fe6b6ff8e349d9ef4b
kw2005-12-26d2t01.flac:6598272279f51e092b5f7d3a0948a30e
kw2005-12-26d2t02.flac:e2f13f540ddffd5006a4e87bf788d83c
kw2005-12-26d2t03.flac:97685926158c7beb5a03100a0206a0f6
kw2005-12-26d2t04.flac:6cda96cc8a184dbcb39ac0e6af8e136c
kw2005-12-26d2t05.flac:7b6a8f445f74dd5ed6d3a710b266dd7e
kw2005-12-26d2t06.flac:8c276fe0db7073015f3ae98c727adf73
kw2005-12-26d2t07.flac:2ef4b3beee71ab4cd21d02364ab27dd3
kw2005-12-26d3t01.flac:47ff9b2483e7863a68214c88d70777e0
kw2005-12-26d3t02.flac:91a31df2e34dca7b1d3d582a0c0db203
kw2005-12-26d3t03.flac:ac9d09681f79b2f096e948a6ab079a6e
kw2005-12-26d3t04.flac:af4bfa75c6723b68e4de314c889a5f72
kw2005-12-26d3t05.flac:af425050c38f9039a9fd09d9ad41a3cb
kw2005-12-26d3t06.flac:c576fde9e9bacd30ce25d0fbf545784d
kw2005-12-26d3t07.flac:b1ca93644d65c47e4bd45289f4b3ee32
kw2005-12-26d3t08.flac:0f511f31b7047755a4ca5ea143e460ec
kw2005-12-26d3t09.flac:b9c6017cc0ccc83800de508a0cd88c49
kw2005-12-26d3t10.flac:9cbf3e2760eebd0a9ee435763406517a
kw2005-12-26d3t11.flac:65a9e7a74b1ab24f174e5a88de512eeb
kw2005-12-26d3t12.flac:55b349ae603d01dd412b3b56b1f2cb0c

    length     expanded size   cdr  WAVE problems filename
     4:06.947      47413804    cxx   --   ---xx   kw2005-12-26d1t01.flac
     6:02.293      69560364    cxx   --   ---xx   kw2005-12-26d1t02.flac
     6:13.253      71664684    cxx   --   ---xx   kw2005-12-26d1t03.flac
     6:03.160      69726764    cxx   --   ---xx   kw2005-12-26d1t04.flac
     2:05.760      24145964    cxx   --   ---xx   kw2005-12-26d1t05.flac
    13:12.880     152233004    cxx   --   ---xx   kw2005-12-26d1t06.flac
     2:51.840      32993324    cxx   --   ---xx   kw2005-12-26d1t07.flac
     3:40.333      42304044    cxx   --   ---xx   kw2005-12-26d1t08.flac
    11:44.067     135180844    cxx   --   ---xx   kw2005-12-26d1t09.flac
     6:22.000      73344044    cxx   --   ---xx   kw2005-12-26d1t10.flac
     6:06.520      70371884    cxx   --   ---xx   kw2005-12-26d1t11.flac
     5:58.480      68828204    cxx   --   ---xx   kw2005-12-26d1t12.flac
     5:55.120      68183084    cxx   --   ---xx   kw2005-12-26d2t01.flac
     9:24.613     108405804    cxx   --   ---xx   kw2005-12-26d2t02.flac
     4:09.533      47910444    cxx   --   ---xx   kw2005-12-26d2t03.flac
     6:53.240      79342124    cxx   --   ---xx   kw2005-12-26d2t04.flac
     9:11.747     105935404    cxx   --   ---xx   kw2005-12-26d2t05.flac
     3:24.973      39354924    cxx   --   ---xx   kw2005-12-26d2t06.flac
     3:11.560      36779564    cxx   --   ---xx   kw2005-12-26d2t07.flac
     5:31.787      63703084    cxx   --   ---xx   kw2005-12-26d3t01.flac
     4:01.640      46394924    cxx   --   ---xx   kw2005-12-26d3t02.flac
     5:40.293      65336364    cxx   --   ---xx   kw2005-12-26d3t03.flac
     5:25.133      62425644    cxx   --   ---xx   kw2005-12-26d3t04.flac
     3:30.907      40494124    cxx   --   ---xx   kw2005-12-26d3t05.flac
     4:04.880      47017004    cxx   --   ---xx   kw2005-12-26d3t06.flac
     5:49.800      67161644    cxx   --   ---xx   kw2005-12-26d3t07.flac
     5:51.067      67404844    cxx   --   ---xx   kw2005-12-26d3t08.flac
     5:00.173      57633324    cxx   --   ---xx   kw2005-12-26d3t09.flac
     7:23.280      85109804    cxx   --   ---xx   kw2005-12-26d3t10.flac
     1:35.307      18298924    cxx   --   ---xx   kw2005-12-26d3t11.flac
     7:23.507      85153324    cxx   --   ---xx   kw2005-12-26d3t12.flac
   177:56.093    2049811284 B                     (totals for 31 files, 0.4652 overall compression ratio)