Author Topic: JG & MS 06-03-75 FOB Menke flac 24 MOTB  (Read 371 times)

0 Members and 1 Guest are viewing this topic.

Offline nab

  • In the Band
  • ***
  • Posts: 8567
  • Karma: 902
  • Gender: Male
JG & MS 06-03-75 FOB Menke flac 24 MOTB
« on: March 14, 2008, 09:17:23 AM »

http://jeromesplace.net/details.php?id=6530

http://db.etree.org/shninfo_detail.php?shnid=87217

MOTB Release: 0045 24bit/96Khz
Release Date: 09/12/2007
Band: Jerry Garcia and Merl Saunders
Date: 06/03/1975 - Tuesday
Venue: Keystone
Location: Berkeley, CA
Source: Audience FOB Recording
Media: Maxell UD90
Lineage: Sony ECM-270 and ECM-250 [Positioned Onstage] > Sony TC-152 > MAC
Transfer: MAC > Nak Dragon > LynxTWO-B > WaveLab 5.0 > HD 24/96 WAV
Taper: Bob Menke and Louis Falanga
Transfer: Bob Menke
Mastering: Derek McCabe

Set 1:
s1t01 - It Takes A Lot To Laugh, It Takes A Train To Cry
s1t02 - I Feel Like Dynamite
s1t03 - Day By Day
s1t04 - Tore Up Over You
s1t05 - Going, Going, Gone

Set 2:
s2t01 -  Harder They Come
s2t02 -  Bossa Martin
s2t03 -  Someday Baby
s2t04 -  //Tough Mama
s2t05 -  How Sweet It Is (To Be Loved By You)

Jerry Garcia and Merl Saunders:
* Jerry Garcia - guitar, vocals
* Merl Saunders - keyboards, vocals
* John Kahn - bass
* Martin Fierro - saxophone, flute
* ??? ????? - drums

Mastering Notes:
-- d1t01 - Tape fades in, then taper equipment problems at 02:11 where recording is cut; there is about a minute of intrumentals missing along with some Jerry vocals. Cut was cross-faded with the remainder of the song and kept as one track.
-- d2t04 - Tape flip cross-faded.

Notes:
-- This is listed as Garcia and Saunders since it has been confirmed Ron Tutt did not play drums at this show; however, it is not certain who did.
-- d1t03 - Based on currently available information "Day By Day" (instrumental) was played just two other times at a show.
-- d2t01 - Notable feedback at about 00:43 and 01:16.
-- d2t04 - According to db.etree "Tough Mama" is not part of the originally circulating Menke-Falanga taped source (shnid=4477). However, it is included in the db.etree show listing set list (shows_key=4888). It is not present in the set list shown at TheJerrrySite.com.
-- d2t04 - "Tough Mama" fades in, with just a few seconds of music missing.

Taper Talk:
-- Question - "Was Bob [Menke] friendly enough with [Steve] Parish to be allowed stage lip mic mounting?"
-- Answer - "We had no permission. We snuck the equipment in and were near the front of the line so we could get the spot. In early 1976 at Sophie's (before the veunue became Keystone Palo Alto) we tried the same thing and 2 things happened. Ramroad cut our mic cable during the first set and Parish threatened to break the 152 over our heads if he saw us trying to tape the 2nd set. Hope that answers your question."

Special Note:
-- These are recordings done by Bob Menke and Louis Falanga at the Berkeley Keystone, made in May and June of 1975, that MOTB will be turning out, the subsequent Grateful Dead and related recordings are dedicated to Bob Menke's mom, Connie, who is suffering from pancreatic cancer. As you listen to what are certainly the most unique - if possibly not some of the best - audience recordings of Jerry Garcia in his prime, please send out healing vibes and prayers to Connie any way you see fit. We are all pulling for her, so please keep her in your hearts and prayers. The MOTB Team



FLAC FINGERPRINTS:
jg+ms1975-06-03.motb.0045.s1t01.flac:23af67aec390c785c721da6664528e24
jg+ms1975-06-03.motb.0045.s1t02.flac:0575d86fbc0ac4c48d2f5c4a1727097c
jg+ms1975-06-03.motb.0045.s1t03.flac:aeed42d7d4b3aba383a1c3d5c3486234
jg+ms1975-06-03.motb.0045.s1t04.flac:cf9ac41d183a6ce4ae8da6b763018a4e
jg+ms1975-06-03.motb.0045.s1t05.flac:38ddc5bb6f4cace1850a608df79be877
jg+ms1975-06-03.motb.0045.s2t01.flac:b45631550f6defdb4939c5e099314d24
jg+ms1975-06-03.motb.0045.s2t02.flac:3037a8fc5e31263bc923b3f22d203089
jg+ms1975-06-03.motb.0045.s2t03.flac:d76edb36cd869ee66d98d1a66725255c
jg+ms1975-06-03.motb.0045.s2t04.flac:20843d649fa917d0261bbc5b4c67d503
jg+ms1975-06-03.motb.0045.s2t05.flac:c280814d4c364f7e31103f621c25d232

MD5 CHECKSUMS:
4d68ca29380ceb8b6048be2036293ee4 *jg+ms1975-06-03.motb.0045.s1t01.flac
e3db166a5a28356d5b1e0d55139cd8e0 *jg+ms1975-06-03.motb.0045.s1t02.flac
b067c9379497627d9204a80efb488573 *jg+ms1975-06-03.motb.0045.s1t03.flac
abbbdcefd088757b00fb0a1dbd77813a *jg+ms1975-06-03.motb.0045.s1t04.flac
31960e42e5c894a10837b62706abb34f *jg+ms1975-06-03.motb.0045.s1t05.flac
252428a827c4afdc62d3f8a70e555e4d *jg+ms1975-06-03.motb.0045.s2t01.flac
0cff5460a49329985d2db61c9654e28d *jg+ms1975-06-03.motb.0045.s2t02.flac
43f12d2502d7144e25f321fdbed25e9c *jg+ms1975-06-03.motb.0045.s2t03.flac
7095b7f1010622e9dfbb97374918e2f9 *jg+ms1975-06-03.motb.0045.s2t04.flac
6f99a19f5833913579022132de569b41 *jg+ms1975-06-03.motb.0045.s2t05.flac

SHNTOOL OUTPUT:
    length     expanded size   cdr  WAVE problems filename
     4:00.516     138537050    cxx   --   ---xx   jg+ms1975-06-03.motb.0045.s1t01.flac
    15:21.045     530522006    cxx   --   ---xx   jg+ms1975-06-03.motb.0045.s1t02.flac
    14:57.456     516934436    cxx   --   ---xx   jg+ms1975-06-03.motb.0045.s1t03.flac
    14:26.437     499067792    cxx   --   ---xx   jg+ms1975-06-03.motb.0045.s1t04.flac
    18:31.619     640292828    cxx   --   ---xx   jg+ms1975-06-03.motb.0045.s1t05.flac
    19:50.461     685705514    cxx   --   ---xx   jg+ms1975-06-03.motb.0045.s2t01.flac
    13:18.354     459852188    cxx   --   ---xx   jg+ms1975-06-03.motb.0045.s2t02.flac
    10:54.882     377212256    cxx   --   ---xx   jg+ms1975-06-03.motb.0045.s2t03.flac
     9:27.678     326982392    cxx   --   ---xx   jg+ms1975-06-03.motb.0045.s2t04.flac
     8:38.265     298520966    cxx   --   ---xx   jg+ms1975-06-03.motb.0045.s2t05.flac
   129:26.714    4473627428 B                     (totals for 10 files, 0.7440 overall compression ratio)

« Last Edit: March 14, 2008, 09:20:12 AM by nab »