October 22, 2021, 12:54:06 AM

News:

Welcome to week4paug.net 2.1 - same as it ever was! Most features have been restored, but please keep us posted on ANY issues you may be having HERE:  https://week4paug.net/index.php/topic,23937


Ed Mann's Dub Jazz Unit

Started by DoW, June 04, 2016, 06:38:11 AM

Previous topic - Next topic

0 Members and 1 Guest are viewing this topic.

DoW

I normally don't fluff stuff I recorded but I enjoyed this set so much last weekend.  Unfortinately with the time slot, there were only about 20 people watching it as it was being performed.
give it a listen on the streaming option

https://archive.org/details/emdju2016-05-27.bsc1-sbd.flac16

Ed Mann's Dub Jazz Unit
2016-05-27
StrangeCreek Music Festival
Greenfield, MA
Vernville Stage

BSC1(cards) + SBD > R44 (24/48)
SDHC Card > Audacity (mix) > Sound Forge Pro 2.5 (fades, Normalize, tracking, resample iZotope 64-Bit SRC, dither iZotope MBIT+ Dither) > xAct (Flac level 8, tagging, fix SBE)
Stage lip/DIN

Taped and Transferred by Brian V.


01.
02.
03. %
04.
05.
06. band intros


Source BSC1 + SBD > R44

% with Garrick "Force" Perry (Alchemystics) on vocals

Ed Mann - percussion and mallets
Van Martin - guitar
Chris Ball - bass
Dean Johnston - drums

***Support Bands That Allow Taping/Trading***

shntool output
length expanded size cdr WAVE problems fmt ratio filename
13:58.10 147846764 B --- -- ----- wav 1.0000 emdju2016-05-27s1t01.wav
12:03.06 127551356 B --- -- ----- wav 1.0000 emdju2016-05-27s1t02.wav
14:26.37 152849468 B --- -- ----- wav 1.0000 emdju2016-05-27s1t03.wav
21:53.26 231674396 B --- -- ----- wav 1.0000 emdju2016-05-27s1t04.wav
13:47.13 145913420 B --- -- ----- wav 1.0000 emdju2016-05-27s1t05.wav
0:20.05 3539804 B --- -- ----- wav 1.0000 emdju2016-05-27s1t06.wav
76:28.22 809375208 B 1.0000 (6 files)

flac fingerprints
emdju2016-05-27s1t01.flac:eca2c727b53a0f4a7c45a8be60e107a8
emdju2016-05-27s1t02.flac:661212a0cbbac9078163a85f9929c9fa
emdju2016-05-27s1t03.flac:412b1eca205e5f0d3d721ee741d9a0b1
emdju2016-05-27s1t04.flac:4b145d868f444dcb9c6b3bd7177df0b3
emdju2016-05-27s1t05.flac:e1feb43816c7bb21700dde0bf5ea7a5a
emdju2016-05-27s1t06.flac:43df72e4bd331fc8a0e904a1a7ae114c
Music is meant to be heard
***Support Bands That Allow Taping/Trading***

http://archive.org/search.php?query=taper%3A%22Brian%20V.%22&sort=-publicdate

Lifeboy

Listening now. Sounds like something I would dig. I've never heard of these guys, but I'm always down to check out some new music, especially if its recommended by a pauger.

Thanks, Brian! +k :beers:
Quote from: mistercharlie on March 10, 2010, 06:41:36 PM
To know me is to know my love of Phish.  :smoke:

DoW

Quote from: Lifeboy on June 04, 2016, 11:17:24 AM
Listening now. Sounds like something I would dig. I've never heard of these guys, but I'm always down to check out some new music, especially if its recommended by a pauger.

Thanks, Brian! +k :beers:
https://en.wikipedia.org/wiki/Ed_Mann

the rest of the people are not musicians you would have heard of.
Music is meant to be heard
***Support Bands That Allow Taping/Trading***

http://archive.org/search.php?query=taper%3A%22Brian%20V.%22&sort=-publicdate

Lifeboy

Quote from: DoW on June 05, 2016, 04:41:52 AM
Quote from: Lifeboy on June 04, 2016, 11:17:24 AM
Listening now. Sounds like something I would dig. I've never heard of these guys, but I'm always down to check out some new music, especially if its recommended by a pauger.

Thanks, Brian! +k :beers:
https://en.wikipedia.org/wiki/Ed_Mann

the rest of the people are not musicians you would have heard of.

Holy shit, I had no idea he played with Zappa. That's so awesome. Zappa is a personal top 5 for me.

Thanks again
Quote from: mistercharlie on March 10, 2010, 06:41:36 PM
To know me is to know my love of Phish.  :smoke: